Last change 2020.03.01 14:20:52 / Time 2021.10.22 10:29:41

Music Database

My complete CD collection digitalized using differnent Linux tools in connection with remote CDDB databases.
These web pages give overview of content according to CDDB info.

cddb/fe114212.txt

# xmcd CD database file generated by Grip 3.3.1
# 
# Track frame offsets:
#       150
#       21734
#       41602
#       58885
#       80647
#       98091
#       116421
#       135257
#       153173
#       169184
#       188335
#       207887
#       222377
#       240837
#       259614
#       276518
#       294573
#       310326
# 
# Disc length: 4420 seconds
# 
# Revision: 12
# Submitted via: Grip 3.3.1
# 
DISCID=fe114212
DTITLE=Pet Shop Boys / The Hits - CD2
DYEAR=2003
DGENRE=rock
DID3=147
TTITLE0=Left To My Own Devices
TTITLE1=I Don't Know What You Want But I Can't Give It Any More
TTITLE2=Flamboyant
TTITLE3=Being Boring
TTITLE4=Can You Forgive Her
TTITLE5=West End Girls
TTITLE6=I Get Along
TTITLE7=So Hard
TTITLE8=Rent
TTITLE9=Jealousy
TTITLE10=DJ Culture
TTITLE11=You Only Tell Me You Love Me When You're Drunk
TTITLE12=Liberation
TTITLE13=Paninaro '95
TTITLE14=Opportunities (Let's Make Lots Of Money)
TTITLE15=Yesterday, When I Was Mad
TTITLE16=Single-Bilingual
TTITLE17=Somewhere
EXTD=
EXTT0=
EXTT1=
EXTT2=
EXTT3=
EXTT4=
EXTT5=
EXTT6=
EXTT7=
EXTT8=
EXTT9=
EXTT10=
EXTT11=
EXTT12=
EXTT13=
EXTT14=
EXTT15=
EXTT16=
EXTT17=
PLAYORDER=