Last change 2020.03.01 14:20:52 / Time 2021.10.18 12:09:01

Music Database

My complete CD collection digitalized using differnent Linux tools in connection with remote CDDB databases.
These web pages give overview of content according to CDDB info.

cddb/fb10f712.txt

# xmcd CD database file generated by Grip 3.2.0
# 
# Track frame offsets:
#       150
#       19264
#       38548
#       51189
#       74219
#       88084
#       106544
#       122296
#       143907
#       160231
#       178579
#       199490
#       215217
#       231839
#       249773
#       270615
#       288290
#       307603
# 
# Disc length: 4345 seconds
# 
# Revision: 14
# Submitted via: Grip 3.2.0
# 
DISCID=fb10f712
DTITLE=Various Artists / 80's - CD8
DYEAR=1998
DGENRE=misc
DID3=13
TTITLE0=Talking Heads / Slippery People (Live)
TTITLE1=Icehouse / Hey Little Girl
TTITLE2=Lene Lovich / Lucky Number
TTITLE3=Power Station / Some Like It Hot
TTITLE4=Robbie Nevil / C'est La Vie
TTITLE5=Spandau Ballet / Chant No. 1 (I Don't Need This Pressure On)
TTITLE6=Duran Duran / Girls On Film
TTITLE7=XTC / Senses Working Overtime
TTITLE8=Kajagoogoo / Ooh To Be Ah
TTITLE9=Huey Lewis & The News / Hip To Be Square
TTITLE10=Ultravox / Vienna
TTITLE11=Peabo Bryson & Roberta Flack / Tonight I Celebrate My Love
TTITLE12=Marillion / Lavender
TTITLE13=Gazebo / Lunatic
TTITLE14=Living In A Box / Room In Your Heart
TTITLE15=Jimmy Nail / Love Don't Live Here Anymore
TTITLE16=David Grant & Jaki Graham / Could It Be I'm Falling In Love
TTITLE17=Freddie Jackson / Rock Me Tonight (For Old Times Sake)
EXTD=YEAR: 1998
EXTT0=YEAR: 1984
EXTT1=YEAR: 1982
EXTT2=YEAR: 1978
EXTT3=YEAR: 1985
EXTT4=YEAR: 1986
EXTT5=YEAR: 1981
EXTT6=YEAR: 1981
EXTT7=YEAR: 1982
EXTT8=YEAR: 1983
EXTT9=YEAR: 1986
EXTT10=YEAR: 1981
EXTT11=YEAR: 1983
EXTT12=YEAR: 1985
EXTT13=YEAR: 1983
EXTT14=YEAR: 1989
EXTT15=YEAR: 1985
EXTT16=YEAR: 1985
EXTT17=YEAR: 1986
PLAYORDER=