Last change 2020.03.01 14:20:52 / Time 2021.12.01 15:38:25

Music Database

My complete CD collection digitalized using differnent Linux tools in connection with remote CDDB databases.
These web pages give overview of content according to CDDB info.

cddb/fa0e1c13.txt

# xmcd CD database file generated by Grip 3.2.0
# 
# Track frame offsets:
#       150
#       13898
#       26186
#       39997
#       54263
#       71473
#       81179
#       101656
#       107340
#       113661
#       127133
#       137794
#       153916
#       168015
#       182115
#       195274
#       205666
#       221781
#       227677
# 
# Disc length: 3614 seconds
# 
# Revision: 2
# Submitted via: Grip 3.2.0
# 
DISCID=fa0e1c13
DTITLE=Gasolin / Black Box - Gasolin 9 - Additional Tracks
DYEAR=2003
DGENRE=rock
DID3=17
TTITLE0=Blood Brothers
TTITLE1=U-Lu-La-Lu
TTITLE2=Sophie, The Bass (Sugar Sugar)
TTITLE3=In The Wings
TTITLE4=Jailbait
TTITLE5=Skru Op, (Nu Kommer Drønet)
TTITLE6=Silky Sally
TTITLE7=WJ
TTITLE8=Lille Susanne - Drømmer Du
TTITLE9=Snow Queen
TTITLE10=Child Of Institution
TTITLE11=Langebro
TTITLE12=Lady Rain
TTITLE13=Holy Jean
TTITLE14=Dejlig Er Jorden
TTITLE15=Campingvognen
TTITLE16=Hva' Gør Vi Nu, Lille Du
TTITLE17=Som Et Strejf Af En Dråbe
TTITLE18=Boogie Jam
EXTD=
EXTT0=
EXTT1=
EXTT2=
EXTT3=
EXTT4=
EXTT5=
EXTT6=
EXTT7=
EXTT8=
EXTT9=
EXTT10=
EXTT11=
EXTT12=
EXTT13=
EXTT14=
EXTT15=
EXTT16=
EXTT17=
EXTT18=
PLAYORDER=