Last change 2020.03.01 14:20:52 / Time 2020.09.24 09:16:00

Music Database

My complete CD collection digitalized using differnent Linux tools in connection with remote CDDB databases.
These web pages give overview of content according to CDDB info.

cddb/fa0dff10.txt

# xmcd
#
# Track frame offsets: 
#        150
#        18547
#        34150
#        47382
#        65451
#        79154
#        95103
#        112205
#        131907
#        148807
#        167901
#        185585
#        202323
#        216894
#        236409
#        253036
#
# Disc length: 3585 seconds
#
# Revision: 0
# Processed by: cddbd v1.5.2PL0 Copyright (c) Steve Scherf et al.
# Submitted via: ExactAudioCopy v1.0b3
#
DISCID=fa0dff10
DTITLE=Puhdys / Heilige Naechte
DYEAR=2013
DGENRE=Pop-rock
TTITLE0=Und er lauscht den Melodien
TTITLE1=All diese Jahre
TTITLE2=Halleluja (Neue Version)
TTITLE3=Am Ende aller Wege
TTITLE4=Stolz
TTITLE5=Mach dir um mich keine Sorgen
TTITLE6=Stille heilige Nacht (Neue Version)
TTITLE7=Dezembernaechte (Neue Version)
TTITLE8=Heimkehren
TTITLE9=Ich seh dich, hoer dich, fuehl dich
TTITLE10=Weihnachten war damals spektakulaer (Neue Version)
TTITLE11=Dezembertage
TTITLE12=Oeffne mein Herz
TTITLE13=Morgendaemmerung
TTITLE14=Grosse Herzen
TTITLE15=Gemeinsam stark
EXTD=
EXTT0=
EXTT1=
EXTT2=
EXTT3=
EXTT4=
EXTT5=
EXTT6=
EXTT7=
EXTT8=
EXTT9=
EXTT10=
EXTT11=
EXTT12=
EXTT13=
EXTT14=
EXTT15=
PLAYORDER=
.