Last change 2020.03.01 14:20:52 / Time 2020.09.24 07:02:47

Music Database

My complete CD collection digitalized using differnent Linux tools in connection with remote CDDB databases.
These web pages give overview of content according to CDDB info.

cddb/fa09ac13.txt

# xmcd CD database file generated by Grip 3.0.4
# 
# Track frame offsets:
#       183
#       17043
#       25143
#       34893
#       45093
#       54098
#       61298
#       71123
#       80200
#       92058
#       102010
#       109748
#       119425
#       128205
#       139035
#       147233
#       156158
#       165523
#       175173
# 
# Disc length: 2478 seconds
# 
# Revision: 1
# Submitted via: Grip 3.0.4
# 
DISCID=fa09ac13
DTITLE=Giorgio Moroder / Forever Dancing
DYEAR=
DGENRE=rock
DID3=-1
TTITLE0=Carry On
TTITLE1=That's The Way (I Like It)
TTITLE2=I Can See You Dancing
TTITLE3=In The Name Of Love
TTITLE4=Don't Leave Me This Way
TTITLE5=So Long
TTITLE6=Shame On You
TTITLE7=Born To Be Alive
TTITLE8=My Secret Wish
TTITLE9=Forever Dancing
TTITLE10=Shake Your Booty
TTITLE11=Say
TTITLE12=Boogie Oogie Oogie
TTITLE13=It's A Crime
TTITLE14=Let's Take The Night
TTITLE15=Samba Si, Trabajo No
TTITLE16=I Feel Love
TTITLE17=It's In The Book
TTITLE18=The Party Goes On
EXTD=
EXTT0=
EXTT1=
EXTT2=
EXTT3=
EXTT4=
EXTT5=
EXTT6=
EXTT7=
EXTT8=
EXTT9=
EXTT10=
EXTT11=
EXTT12=
EXTT13=
EXTT14=
EXTT15=
EXTT16=
EXTT17=
EXTT18=
PLAYORDER=