Last change 2020.03.01 14:20:52 / Time 2020.09.25 03:28:13

Music Database

My complete CD collection digitalized using differnent Linux tools in connection with remote CDDB databases.
These web pages give overview of content according to CDDB info.

cddb/f912ae11.txt

# xmcd CD database file generated by Grip 3.3.1
# 
# Track frame offsets:
#       150
#       21534
#       43344
#       61499
#       83112
#       102355
#       121759
#       136464
#       154918
#       167422
#       188912
#       211142
#       228402
#       243135
#       262445
#       287473
#       347850
# 
# Disc length: 4784 seconds
# 
# Revision: 24
# Submitted via: Grip 3.3.1
# 
DISCID=f912ae11
DTITLE=Robbie Williams / Rudebox
DYEAR=2006
DGENRE=misc
DID3=13
TTITLE0=Rudebox
TTITLE1=Viva Life On Mars
TTITLE2=Lovelight
TTITLE3=Bongo Bong And Je Ne T'aime Plus
TTITLE4=She's Madonna
TTITLE5=Keep On
TTITLE6=Good Doctor
TTITLE7=The Actor
TTITLE8=Never Touch That Switch
TTITLE9=Louise
TTITLE10=We're The Pet Shop Boys
TTITLE11=Burslem Normals
TTITLE12=Kiss Me
TTITLE13=The 80's
TTITLE14=The 90's
TTITLE15=Summertime
TTITLE16=
EXTD= YEAR: 2006
EXTT0=
EXTT1=
EXTT2=
EXTT3=
EXTT4=
EXTT5=
EXTT6=
EXTT7=
EXTT8=
EXTT9=
EXTT10=
EXTT11=
EXTT12=
EXTT13=
EXTT14=
EXTT15=
EXTT16=
PLAYORDER=