Last change 2020.03.01 14:20:52 / Time 2021.12.01 15:18:11

Music Database

My complete CD collection digitalized using differnent Linux tools in connection with remote CDDB databases.
These web pages give overview of content according to CDDB info.

cddb/f8125e11.txt

# xmcd CD database file generated by Grip 3.3.1
# 
# Track frame offsets:
#       150
#       15992
#       29875
#       51326
#       70239
#       96283
#       119416
#       146051
#       165933
#       184275
#       206349
#       228079
#       250026
#       268244
#       287680
#       308585
#       329717
# 
# Disc length: 4704 seconds
# 
# Revision: 5
# Submitted via: Grip 3.3.1
# 
DISCID=f8125e11
DTITLE=Elton John / Greatest Hits 1970-2002 CD2
DYEAR=2002
DGENRE=newage
DID3=13
TTITLE0=Blue Eyes 1982
TTITLE1=I'm Still Standing 1983
TTITLE2=I Guess That's Why They Call It The Blues 1983
TTITLE3=Sad Songs (Say So Much) 1984
TTITLE4=Nikita 1985
TTITLE5=Sacrifice 1989
TTITLE6=The One 1992
TTITLE7=Kiss The Bride 1983
TTITLE8=Can You Feel The Love Tonight 1994
TTITLE9=Circle Of Life 1994
TTITLE10=Believe 1995
TTITLE11=Made In England 1995
TTITLE12=Something About The Way You Look Tonight 1997
TTITLE13=Written In The Stars (With Leann Rimes) 1999
TTITLE14=I Want Love 2001
TTITLE15=This Train Don't Stop There Anymore 2001
TTITLE16=Song For Guy 1978
EXTD= YEAR: 2002 ID3G: 13
EXTT0=
EXTT1=
EXTT2=
EXTT3=
EXTT4=
EXTT5=
EXTT6=
EXTT7=
EXTT8=
EXTT9=
EXTT10=
EXTT11=
EXTT12=
EXTT13=
EXTT14=
EXTT15=
EXTT16=
PLAYORDER=