Last change 2020.03.01 14:20:52 / Time 2020.09.25 03:31:45

Music Database

My complete CD collection digitalized using differnent Linux tools in connection with remote CDDB databases.
These web pages give overview of content according to CDDB info.

cddb/f8122311.txt

# xmcd CD database file generated by Grip 3.3.1
# 
# Track frame offsets:
#       150
#       20593
#       41195
#       60513
#       79063
#       100483
#       118215
#       136863
#       156595
#       187470
#       210148
#       225665
#       243520
#       262983
#       283405
#       304593
#       331778
# 
# Disc length: 4645 seconds
# 
# Revision: 14
# Submitted via: Grip 3.3.1
# 
DISCID=f8122311
DTITLE=Chris Rea / Best of Chris Rea
DYEAR=1994
DGENRE=misc
DID3=12
TTITLE0=The Road to Hell
TTITLE1=Josephine
TTITLE2=Let's Dance
TTITLE3=Fool (if you think it's over)
TTITLE4=Auberge
TTITLE5=Julia
TTITLE6=Stainsby Girls
TTITLE7=If You Were Me (duet with Elton John)
TTITLE8=On The Beach
TTITLE9=Looking For The Summer
TTITLE10=I Can Hear Your Heartbeat
TTITLE11=You Can Go Your Own Way
TTITLE12=God's Great Banana Skin
TTITLE13=Winter Song
TTITLE14=Gone Fishing
TTITLE15=Tell Me There's A Heaven
TTITLE16=Three Little Green Candles
EXTD=YEAR: 1994\n\n\n Für freedb bereitgestelt von:\n    KELLER'S Mus
EXTD=ik Katalog 2004
EXTT0=
EXTT1=
EXTT2=
EXTT3=
EXTT4=
EXTT5=
EXTT6=
EXTT7=
EXTT8=
EXTT9=
EXTT10=
EXTT11=
EXTT12=
EXTT13=
EXTT14=
EXTT15=
EXTT16=
PLAYORDER=