Last change 2020.03.01 14:20:52 / Time 2021.12.07 03:36:57

Music Database

My complete CD collection digitalized using differnent Linux tools in connection with remote CDDB databases.
These web pages give overview of content according to CDDB info.

cddb/f80f4411.txt

# xmcd
#
# Track frame offsets:
#	150
#	17167
#	38315
#	55339
#	72122
#	88847
#	105545
#	124565
#	138177
#	158667
#	174495
#	194580
#	213702
#	230027
#	246747
#	262197
#	276000
#
# Disc length: 3910 seconds
#
# Revision: 1
# Processed by: cddbd v1.5.2PL0 Copyright (c) Steve Scherf et al.
# Submitted via: EasyCDDAExtractor 11.1.0.1
#
DISCID=f80f4411
DTITLE=Johnny Reimar / Sommer Party (CD 3) Potpourri
DYEAR=1999
DGENRE=Misc
TTITLE0=Sig du bli'r her til i morgen - Fuglen og barnet
TTITLE1=Nina kære Nina - Kyssene må vente
TTITLE2=Hasta mañana - Virus og bakterier
TTITLE3=To men'sker på en strand - Er stemningen på Toppen
TTITLE4=Den dag du kom - Kønne blomster kan aldrig stå i fred
TTITLE5=Uglevisen - Det bli'r aldrig som det var i gamle dage
TTITLE6=Send mig et brev - Señorita Española
TTITLE7=Lad mig være den
TTITLE8=Spil lidt mere rock - spil whist igen
TTITLE9=Aldrig mer' må jeg se dig - Jenny
TTITLE10=Gennem sol og regn - Wimmersvej
TTITLE11=Fernando - Disco polka
TTITLE12=Det gå op det går ned - Falderi og falderei
TTITLE13=Disco-Linda - Der er lang lang vej til Barbados
TTITLE14=En-to-tre
TTITLE15=Jeg vil danse boogie
TTITLE16=Vil eller vil du ikke - I ølmandens lange skæg
EXTD=
EXTT0=
EXTT1=
EXTT2=
EXTT3=
EXTT4=
EXTT5=
EXTT6=
EXTT7=
EXTT8=
EXTT9=
EXTT10=
EXTT11=
EXTT12=
EXTT13=
EXTT14=
EXTT15=
EXTT16=
PLAYORDER=
.