Last change 2020.03.01 14:20:52 / Time 2020.09.25 03:56:01

Music Database

My complete CD collection digitalized using differnent Linux tools in connection with remote CDDB databases.
These web pages give overview of content according to CDDB info.

cddb/f80f0512.txt

# xmcd CD database file generated by Grip 3.3.1
# 
# Track frame offsets:
#       150
#       16002
#       34497
#       49135
#       59035
#       77032
#       92992
#       106217
#       118060
#       138152
#       151405
#       172797
#       187040
#       201825
#       216450
#       240140
#       252242
#       267815
# 
# Disc length: 3847 seconds
# 
# Revision: 4
# Submitted via: Grip 3.3.1
# 
DISCID=f80f0512
DTITLE=Frank Sinatra / The Reprise Years
DYEAR=1991
DGENRE=misc
DID3=12
TTITLE0=All The Way
TTITLE1=Come Rain Or Come Shine
TTITLE2=I Get A Kick Out Of You
TTITLE3=Night And Day (Disco Version)
TTITLE4=All Or Nothing At All
TTITLE5=I've Got You Under My Skin
TTITLE6=Didn't We
TTITLE7=Strangers In The Night
TTITLE8=It Was A Very Good Year
TTITLE9=Call Me Irresponsible
TTITLE10=One For My Baby
TTITLE11=My Kind Of Town
TTITLE12=How Insensitive
TTITLE13=The September Of My Years
TTITLE14=Luck Be A Lady
TTITLE15=Something Stupid
TTITLE16=Theme From New York, New York
TTITLE17=My Way
EXTD=YEAR: 1991
EXTT0=
EXTT1=
EXTT2=
EXTT3=
EXTT4=
EXTT5=
EXTT6=
EXTT7=
EXTT8=
EXTT9=
EXTT10=
EXTT11=
EXTT12=
EXTT13=
EXTT14=
EXTT15=
EXTT16=
EXTT17=
PLAYORDER=