Last change 2020.03.01 14:20:52 / Time 2020.09.25 02:22:37

Music Database

My complete CD collection digitalized using differnent Linux tools in connection with remote CDDB databases.
These web pages give overview of content according to CDDB info.

cddb/f7116712.txt

# xmcd CD database file generated by Grip 3.0.7
# 
# Track frame offsets:
#       200
#       16065
#       37492
#       53420
#       69805
#       86917
#       105822
#       122607
#       138650
#       156187
#       173825
#       189570
#       207350
#       227667
#       243787
#       261652
#       277837
#       305950
# 
# Disc length: 4457 seconds
# 
# Revision: 2
# Submitted via: Grip 3.0.7
# 
DISCID=f7116712
DTITLE=OMD / The Best of OMD
DYEAR=1988
DGENRE=rock
DID3=13
TTITLE0=Electricity
TTITLE1=Messages
TTITLE2=Enola Gay
TTITLE3=Souvenir
TTITLE4=Joan of Arc
TTITLE5=Maid of Orleans
TTITLE6=Telegraph
TTITLE7=Tesla Girls
TTITLE8=Locomotion
TTITLE9=Talking Loud and Clear
TTITLE10=So in Love
TTITLE11=Secret
TTITLE12=If You Leave
TTITLE13=Forever Live and Die
TTITLE14=Dreaming
TTITLE15=Genetic Engineering
TTITLE16=We Love You (12" version)
TTITLE17=La Femme Accident (12" version)
EXTD=YEAR: 1988
EXTT0=
EXTT1=
EXTT2=
EXTT3=
EXTT4=
EXTT5=
EXTT6=
EXTT7=
EXTT8=
EXTT9=
EXTT10=
EXTT11=
EXTT12=
EXTT13=
EXTT14=
EXTT15=
EXTT16=
EXTT17=
PLAYORDER=