Last change 2020.03.01 14:20:52 / Time 2021.10.22 10:30:57

Music Database

My complete CD collection digitalized using differnent Linux tools in connection with remote CDDB databases.
These web pages give overview of content according to CDDB info.

cddb/f610f312w.txt

# xmcd CD database file
# Copyright (C) 1995-1998 Ti Kan
#
# Track frame offsets:
#	150
#	19509
#	33089
#	50464
#	67239
#	80022
#	95712
#	111104
#	127767
#	143214
#	161944
#	187537
#	203454
#	220314
#	263007
#	276407
#	292624
#	309917
#
# Disc length: 4341 seconds
#
# Revision: 1
# Processed by: cddbd v1.5.2PL0 Copyright (c) Steve Scherf et al.
# Submitted via: CDex 1.30Release
#
DISCID=f610f312
DTITLE=De Black Fooss / ... zum fiere
DYEAR=2001
DGENRE=Other
TTITLE0=Samba em Veedel
TTITLE1=Drink doch eine met
TTITLE2=Ein Leben nach dem Tod
TTITLE3=Et Spanien-Leed
TTITLE4=Mir Kölsche
TTITLE5=Mer losse d'r Dom in Kölle
TTITLE6=Dat Wasser vun Kölle
TTITLE7=Kaffeebud
TTITLE8=Moni hat geweint
TTITLE9=Fastelovendstrum
TTITLE10=Buuredanz
TTITLE11=Mer bruche keiner
TTITLE12=Unsere Stammbaum
TTITLE13=Vun d'r Elsassstross zum Dom
TTITLE14=Elvis lääv
TTITLE15=Lappa Loma de Mallorca
TTITLE16=Bye bye my love
TTITLE17=En unserem Veedel
EXTD= YEAR: 2001 ID3G:  12
EXTT0=
EXTT1=
EXTT2=
EXTT3=
EXTT4=
EXTT5=
EXTT6=
EXTT7=
EXTT8=
EXTT9=
EXTT10=
EXTT11=
EXTT12=
EXTT13=
EXTT14=
EXTT15=
EXTT16=
EXTT17=
PLAYORDER=