Last change 2020.03.01 14:20:52 / Time 2020.09.24 09:46:08

Music Database

My complete CD collection digitalized using differnent Linux tools in connection with remote CDDB databases.
These web pages give overview of content according to CDDB info.

cddb/f5117a12.txt

# xmcd CD database file generated by Grip 3.2.0
# 
# Track frame offsets:
#       150
#       13520
#       30147
#       54651
#       73436
#       90007
#       109610
#       127828
#       159474
#       175082
#       191635
#       207925
#       226039
#       243846
#       262372
#       281256
#       299520
#       320189
# 
# Disc length: 4476 seconds
# 
# Revision: 19
# Submitted via: Grip 3.2.0
# 
DISCID=f5117a12
DTITLE=Various Artists / 80's - CD7
DYEAR=1998
DGENRE=blues
DID3=13
TTITLE0=Tracey Ullman / Sunglasses
TTITLE1=Ultravox / All Stood Still
TTITLE2=Duran Duran / Save A Prayer
TTITLE3=China Crisis / Wishful Thinking
TTITLE4=Adrian Gurvitz / Classic
TTITLE5=Huey Lewis & The News / The Power Of Love
TTITLE6=Hot Chocolate / It Started With A Kiss
TTITLE7=BB & Q Band / On The Beat
TTITLE8=Blondie / Call Me
TTITLE9=Eddy Grant / I Don't Wanna Dance
TTITLE10=Jaki Graham / Set Me Free
TTITLE11=Boris Gardiner / I Want To Wake Up With You
TTITLE12=J. Geils Band / Freeze-Frame
TTITLE13=Jermaine Stewert / We Don't Have To Take Our Clothes Off
TTITLE14=Deborah Harry / French Kissin' In The USA
TTITLE15=Peter Tosh / Johnny B Goode
TTITLE16=Special A.K.A. / Free Nelson Mandela
TTITLE17=Stranglers / Golden Brown
EXTD=YEAR: 1998
EXTT0=YEAR: 1984
EXTT1=YEAR: 1981
EXTT2=YEAR: 1983
EXTT3=YEAR: 1983
EXTT4=YEAR: 1982
EXTT5=YEAR: 1985
EXTT6=YEAR: 1982
EXTT7=YEAR: 1981
EXTT8=YEAR: 1980
EXTT9=YEAR: 1982
EXTT10=YEAR: 1986
EXTT11=YEAR: 1986
EXTT12=YEAR: 1982
EXTT13=YEAR: 1986
EXTT14=YEAR: 1986
EXTT15=YEAR: 1988
EXTT16=YEAR: 1984
EXTT17=YEAR: 1981
PLAYORDER=