Last change 2020.03.01 14:20:52 / Time 2021.10.18 12:17:00

Music Database

My complete CD collection digitalized using differnent Linux tools in connection with remote CDDB databases.
These web pages give overview of content according to CDDB info.

cddb/f4116511.txt

# xmcd
#
# Track frame offsets: 
#        150
#        18165
#        37400
#        63192
#        79125
#        94465
#        112487
#        127905
#        146905
#        165940
#        187662
#        208760
#        231300
#        248492
#        269525
#        289385
#        309017
#
# Disc length: 4455 seconds
#
# Revision: 12
# Processed by: cddbd v1.5.2PL0 Copyright (c) Steve Scherf et al.
# Submitted via: ExactAudioCopy v0.99pb3
#
DISCID=f4116511
DTITLE=Various Artists / Magi I Luften
DYEAR=1994
DGENRE=Dansk Pop
TTITLE0=TV2 / Bag Duggede Ruder
TTITLE1=Gnags / Danmark
TTITLE2=Sanne Salomonsen / Det' Ikke Det Du Siger
TTITLE3=Halberg-Larsen / Magi I Luften
TTITLE4=Malurt / Superlove
TTITLE5=C.V. Jørgensen / Costa Del Sol
TTITLE6=Rocazino / Elsk Mig I Nat
TTITLE7=Rugsted & Kreutzfeldt / Jeg Ved Det Godt
TTITLE8=Lis Sørensen / Indtil Dig Igen
TTITLE9=Dodo & The Dodos / Vågner I Natten
TTITLE10=Thomas Helmig / Nu Hvor Du Har Brændt Mig Af
TTITLE11=Danseorkestret / Kom Tilbage Til Mig
TTITLE12=Sneakers / Sui Sui
TTITLE13=Ray Dee Ohh / Brændende Læber
TTITLE14=Søs Fenger / Holder Øje Med Dig
TTITLE15=Anne Linnet / 1000 Stykker
TTITLE16=Sebastian / 80'ernes Boheme
EXTD=
EXTT0=
EXTT1=
EXTT2=
EXTT3=
EXTT4=
EXTT5=
EXTT6=
EXTT7=
EXTT8=
EXTT9=
EXTT10=
EXTT11=
EXTT12=
EXTT13=
EXTT14=
EXTT15=
EXTT16=
PLAYORDER=
.