Last change 2020.03.01 14:20:52 / Time 2021.10.18 10:35:20

Music Database

My complete CD collection digitalized using differnent Linux tools in connection with remote CDDB databases.
These web pages give overview of content according to CDDB info.

cddb/f311f312.txt

# xmcd CD database file generated by Grip 3.3.1
# 
# Track frame offsets:
#       150
#       18428
#       31782
#       51903
#       72831
#       97600
#       114203
#       131048
#       154950
#       174935
#       196303
#       213092
#       234364
#       253916
#       271783
#       290039
#       309292
#       327669
# 
# Disc length: 4597 seconds
# 
# Revision: 0
# Submitted via: Grip 3.3.1
# 
DISCID=f311f312
DTITLE=Tina Turner / All The Best
DYEAR=
DGENRE=rock
DID3=17
TTITLE0=Open Arms
TTITLE1=Nutbush City Limits
TTITLE2=What You Get Is What You See
TTITLE3=Missing You
TTITLE4=The Best
TTITLE5=River Deep Mountain High
TTITLE6=When The Heartache Is Over
TTITLE7=Let's Stay Together
TTITLE8=I Don't Wanna Fight
TTITLE9=Whatever You Need
TTITLE10=I Can't Stand The Rain
TTITLE11=Goldeneye
TTITLE12=I Don't Wanna Lose You
TTITLE13=Great Spirits
TTITLE14=Private Dancer
TTITLE15=We Don't Need Another Hero
TTITLE16=Steamy Windows
TTITLE17=What's Love Got To Do With It
EXTD=
EXTT0=
EXTT1=
EXTT2=
EXTT3=
EXTT4=
EXTT5=
EXTT6=
EXTT7=
EXTT8=
EXTT9=
EXTT10=
EXTT11=
EXTT12=
EXTT13=
EXTT14=
EXTT15=
EXTT16=
EXTT17=
PLAYORDER=