Last change 2020.03.01 14:20:52 / Time 2020.09.25 02:33:53

Music Database

My complete CD collection digitalized using differnent Linux tools in connection with remote CDDB databases.
These web pages give overview of content according to CDDB info.

cddb/f30f4512.txt

# xmcd CD database file generated by Grip 3.3.1
# 
# Track frame offsets:
#       150
#       13290
#       31307
#       45077
#       48130
#       60682
#       81435
#       101857
#       115742
#       128500
#       150540
#       166357
#       187815
#       203877
#       221155
#       236650
#       250967
#       278207
# 
# Disc length: 3911 seconds
# 
# Revision: 3
# Submitted via: Grip 3.3.1
# 
DISCID=f30f4512
DTITLE=De Black Fooss / 30 Jahre (CD2)
DYEAR=2000
DGENRE=folk
DID3=12
TTITLE0=Mir Kölsche
TTITLE1=Katrin
TTITLE2=Männer
TTITLE3=Steh auf, wenn Du ein Kölner bist
TTITLE4=Et Spanien Leed
TTITLE5=Schötzefess
TTITLE6=Dä Wing vun Kölle am Rhing
TTITLE7=Drink doch eine met
TTITLE8=Achterbahn
TTITLE9=Do han sen en d'r Ärm jenomme
TTITLE10=Mer bruche keiner
TTITLE11=Niemals geht man so ganz
TTITLE12=Am Dom zo Kölle
TTITLE13=Bye Bye my Love
TTITLE14=En unserem Veedel
TTITLE15=Mer losse d'r Dom en Kölle
TTITLE16=Samba em Veedel
TTITLE17=Zick Zick eröm
EXTD=Live in der Kölnarena - Sylvester 2000
EXTT0=
EXTT1=
EXTT2=(Männerchor-Version)
EXTT3=(Publikum)
EXTT4=
EXTT5=
EXTT6=
EXTT7=
EXTT8=
EXTT9=
EXTT10=
EXTT11=
EXTT12=
EXTT13=
EXTT14=
EXTT15=
EXTT16=(Medley)
EXTT17=Feat. Daddy Deeè & 4-Get it
PLAYORDER=