Last change 2020.03.01 14:20:52 / Time 2020.09.19 15:10:04

Music Database

My complete CD collection digitalized using differnent Linux tools in connection with remote CDDB databases.
These web pages give overview of content according to CDDB info.

cddb/f30e8711.txt

# xmcd CD database file generated by Grip 3.0.7
# 
# Track frame offsets:
#       182
#       10827
#       27222
#       38850
#       52027
#       74155
#       90610
#       106787
#       126952
#       146010
#       165687
#       181710
#       197442
#       213920
#       230440
#       243692
#       260232
# 
# Disc length: 3721 seconds
# 
# Revision: 11
# Submitted via: Grip 3.0.7
# 
DISCID=f30e8711
DTITLE=The Cure / Staring At the Sea - the Singles
DYEAR=1987
DGENRE=misc
DID3=12
TTITLE0=Killing an Arab
TTITLE1=10.15 Saturday Night
TTITLE2=Boys Don't Cry
TTITLE3=Jumping Someone Else's Train
TTITLE4=A Forest
TTITLE5=Play For Today
TTITLE6=Primary
TTITLE7=Other Voices
TTITLE8=Charlotte Sometimes
TTITLE9=The Hanging Garden
TTITLE10=Let's Go To Bed
TTITLE11=The Walk
TTITLE12=The Love Cats
TTITLE13=The Caterpillar
TTITLE14=In-Between Days
TTITLE15=Close To Me
TTITLE16=A Night Like This
EXTD=
EXTT0=
EXTT1=
EXTT2=
EXTT3=
EXTT4=
EXTT5=
EXTT6=
EXTT7=
EXTT8=
EXTT9=
EXTT10=
EXTT11=
EXTT12=
EXTT13=
EXTT14=
EXTT15=
EXTT16=
PLAYORDER=