Last change 2020.03.01 14:20:52 / Time 2020.09.24 07:46:08

Music Database

My complete CD collection digitalized using differnent Linux tools in connection with remote CDDB databases.
These web pages give overview of content according to CDDB info.

cddb/f211c911.txt

# xmcd CD database file generated by Grip 3.0.7
# 
# Track frame offsets:
#       150
#       16057
#       35177
#       54732
#       70437
#       86545
#       99670
#       120372
#       136857
#       159035
#       187812
#       209447
#       231417
#       260667
#       283450
#       304967
#       324952
# 
# Disc length: 4555 seconds
# 
# Revision: 4
# Submitted via: Grip 3.0.7
# 
DISCID=f211c911
DTITLE=Eagles / The Very Best Of The Eagles
DYEAR=1994
DGENRE=rock
DID3=17
TTITLE0=Take It Easy
TTITLE1=Witchy Woman
TTITLE2=Peaceful Easy Feeling
TTITLE3=Doolin-Dalton
TTITLE4=Desperado
TTITLE5=Tequila Sunrise
TTITLE6=Best Of My Love
TTITLE7=James Dean
TTITLE8=I Can't Tell You Why
TTITLE9=Lyin' Eyes
TTITLE10=Take It To The Limit
TTITLE11=One Of These Nights
TTITLE12=Hotel California
TTITLE13=New Kid In Town
TTITLE14=Life In The Fast Lane
TTITLE15=Heartache Tonight
TTITLE16=The Long Run
EXTD=
EXTT0=
EXTT1=
EXTT2=
EXTT3=
EXTT4=
EXTT5=
EXTT6=
EXTT7=
EXTT8=
EXTT9=
EXTT10=
EXTT11=
EXTT12=
EXTT13=
EXTT14=
EXTT15=
EXTT16=
PLAYORDER=