Last change 2020.03.01 14:20:52 / Time 2021.10.22 10:20:50

Music Database

My complete CD collection digitalized using differnent Linux tools in connection with remote CDDB databases.
These web pages give overview of content according to CDDB info.

cddb/f10e5614.txt

# xmcd
#
# Track frame offsets:
#	150
#	13500
#	23925
#	35700
#	50475
#	61725
#	75225
#	87450
#	100275
#	112500
#	124200
#	137550
#	159075
#	170700
#	180150
#	196575
#	213375
#	228000
#	246900
#	263025
#
# Disc length: 3672 seconds
#
# Revision: 0
# Processed by: cddbd v1.5.2PL0 Copyright (c) Steve Scherf et al.
# Submitted via: EasyCDDAExtractor 7.5.0.1
#
DISCID=f10e5614
DTITLE=Various Artists / Alle Tiders Danske Schlager Hits - CD 01
DYEAR=2008
DGENRE=Pop
TTITLE0=Johnny Reimar / Lille Fregnede Louise
TTITLE1=Birthe Kjær / Sommer Og Sol
TTITLE2=Dorthe Kollo / Skotterne I Skotland
TTITLE3=Lille Palle / Jeg Er Så Ked A' Den Hænger Ned A'
TTITLE4=Pedro Biker / Regndråber Drypper I Mit Hår
TTITLE5=Birthe Kjær / Cassatchok
TTITLE6=Katy Bødtger / Lille Sorte Stær
TTITLE7=Teddy, Chano, Jan & John / Jeg Vil Bo På Vesterbro
TTITLE8=Gustav Winckler / Hvide Måge
TTITLE9=Mette / Sla-Ba-Du-Ba Delle
TTITLE10=Bjørn & Okay / Pigen Og Hårbåndet
TTITLE11=Werther & Winckler / Bare Der Er Sol I Dine Øjne
TTITLE12=Gustav Winckler / Den Lille Gyldne Ring
TTITLE13=Johnny Reimar / Òle Det Var I Spanien
TTITLE14=Peter Belli / Kære Gamle Tog
TTITLE15=Birthe Wilke & Gustav Winckler / Skibet Skal Sejle I Nat
TTITLE16=Katy Bødtger / Hvor Er Alle Drømmene
TTITLE17=Dorthe Kollo / En Sød Student Fra Holstebro
TTITLE18=Rocazino / All My Love
TTITLE19=Melody Makers / La Bostella
EXTD=
EXTT0=
EXTT1=
EXTT2=
EXTT3=
EXTT4=
EXTT5=
EXTT6=
EXTT7=
EXTT8=
EXTT9=
EXTT10=
EXTT11=
EXTT12=
EXTT13=
EXTT14=
EXTT15=
EXTT16=
EXTT17=
EXTT18=
EXTT19=
PLAYORDER=
.