Last change 2020.03.01 14:20:52 / Time 2021.12.01 15:26:17

Music Database

My complete CD collection digitalized using differnent Linux tools in connection with remote CDDB databases.
These web pages give overview of content according to CDDB info.

cddb/f10ccc12.txt

# xmcd CD database file generated by Grip 3.3.1
# 
# Track frame offsets:
#       150
#       13607
#       27537
#       40325
#       53447
#       64730
#       76417
#       90532
#       104535
#       120077
#       132737
#       145707
#       158265
#       170847
#       184470
#       197140
#       213112
#       229840
# 
# Disc length: 3278 seconds
# 
# Revision: 4
# Submitted via: Grip 3.3.1
# 
DISCID=f10ccc12
DTITLE=Diverse kunstnere / Kitsch hits
DYEAR=1997
DGENRE=rock
DID3=13
TTITLE0=Mabel / Boom boom
TTITLE1=Birthe Kjær / Pas på den knaldrøde gummibåd
TTITLE2=Kirsten & Søren / Sku' du spørg' fra no'en 
TTITLE3=Lonnie Devantier / Hallo hallo
TTITLE4=Gry / Kloden drejer
TTITLE5=Brixx / Video video
TTITLE6=Anne Cathrine & Drengene /  En lille melodi
TTITLE7=Kenny & Lotte / Alt det som ingen ser
TTITLE8=Johnny Reimar / Du burde købe dig en tyrolerhat
TTITLE9=Tommy Seebach / Disco tango
TTITLE10=Snapshot / Gi'r du et knus
TTITLE11=Trine Dyrholm & Moonlighters / Danse i måneskin
TTITLE12=John Hatting / Donna Donna
TTITLE13=Kirsten & Søren / Det' lige det
TTITLE14=Trax / Du er fuld af løgn
TTITLE15=Torben Lendager / Vi holder fest
TTITLE16=Birthe Kjær / Disco medley
TTITLE17=Johnny Reimar / Sikken' fest
EXTD=ID3G:  13\nRecordnumber CMC  6180-2
EXTT0=
EXTT1=
EXTT2=
EXTT3=
EXTT4=
EXTT5=
EXTT6=
EXTT7=
EXTT8=
EXTT9=
EXTT10=
EXTT11=
EXTT12=
EXTT13=
EXTT14=
EXTT15=
EXTT16=
EXTT17=
PLAYORDER=