Last change 2020.03.01 14:20:52 / Time 2021.10.22 09:52:46

Music Database

My complete CD collection digitalized using differnent Linux tools in connection with remote CDDB databases.
These web pages give overview of content according to CDDB info.

cddb/ee12a911.txt

# xmcd CD database file generated by Grip 3.3.1
# 
# Track frame offsets:
#       150
#       18530
#       46926
#       70610
#       91957
#       109795
#       127515
#       149751
#       164514
#       181928
#       206302
#       231769
#       248802
#       272995
#       303513
#       320392
#       341169
# 
# Disc length: 4779 seconds
# 
# Revision: 6
# Submitted via: Grip 3.3.1
# 
DISCID=ee12a911
DTITLE=Elton John / Greatest Hits 1970-2002 CD1
DYEAR=2002
DGENRE=rock
DID3=13
TTITLE0=Your Song
TTITLE1=Tiny Dancer
TTITLE2=Honky Cat
TTITLE3=Rocket Man (I Think It's Going to Be a Long, Long Time)
TTITLE4=Crocodile Rock
TTITLE5=Daniel
TTITLE6=Saturday Night's Alright for Fighting
TTITLE7=Goodbye Yellow Brick Road
TTITLE8=Candle in the Wind
TTITLE9=Bennie and the Jets
TTITLE10=Don't Let the Sun Go Down on Me
TTITLE11=The Bitch is Back
TTITLE12=Philadelphia Freedom
TTITLE13=Someone Saved My Life Tonight
TTITLE14=Island Girl
TTITLE15=Don't Go Breaking My Heart
TTITLE16=Sorry Seems to Be the Hardest Word
EXTD= YEAR: 2002
EXTT0=
EXTT1=
EXTT2=
EXTT3=
EXTT4=
EXTT5=
EXTT6=
EXTT7=
EXTT8=
EXTT9=
EXTT10=
EXTT11=
EXTT12=
EXTT13=
EXTT14=
EXTT15=
EXTT16=
PLAYORDER=