Last change 2020.03.01 14:20:52 / Time 2021.10.18 11:47:28

Music Database

My complete CD collection digitalized using differnent Linux tools in connection with remote CDDB databases.
These web pages give overview of content according to CDDB info.

cddb/ed114111.txt

# xmcd CD database file generated by Grip 3.3.1
# 
# Track frame offsets:
#       150
#       22956
#       46281
#       64351
#       83742
#       101824
#       123231
#       141116
#       158970
#       176616
#       195969
#       218457
#       237781
#       256244
#       271284
#       290750
#       311028
# 
# Disc length: 4419 seconds
# 
# Revision: 17
# Submitted via: Grip 3.3.1
# 
DISCID=ed114111
DTITLE=Pet Shop Boys / The Hits - CD1
DYEAR=2003
DGENRE=rock
DID3=147
TTITLE0=Go West
TTITLE1=Suburbia (Video Mix)
TTITLE2=Se A Vida É (That's The Way Life Is)
TTITLE3=What Have I Done To Deserve This
TTITLE4=Always On My Mind
TTITLE5=I Wouldn't Normally Do This Kind Of Thing
TTITLE6=Home And Dry
TTITLE7=Heart
TTITLE8=Miracles
TTITLE9=Love Comes Quickly
TTITLE10=It's A Sin
TTITLE11=Domino Dancing
TTITLE12=Before
TTITLE13=New York City Boy
TTITLE14=It's Alright
TTITLE15=Where The Streets Have No Name (I Can't Take My Eyes Off You)
TTITLE16=A Red Letter Day
EXTD= YEAR: 2003 ID3G: 13
EXTT0=
EXTT1=
EXTT2=
EXTT3=
EXTT4=
EXTT5=
EXTT6=
EXTT7=
EXTT8=
EXTT9=
EXTT10=
EXTT11=
EXTT12=
EXTT13=
EXTT14=
EXTT15=
EXTT16=
PLAYORDER=