Last change 2020.03.01 14:20:52 / Time 2020.09.24 07:30:40

Music Database

My complete CD collection digitalized using differnent Linux tools in connection with remote CDDB databases.
These web pages give overview of content according to CDDB info.

cddb/ed0f1010.txt

# xmcd CD database file generated by Grip 3.3.1
# 
# Track frame offsets:
#       150
#       18042
#       35417
#       52810
#       74042
#       92102
#       109832
#       126720
#       144507
#       160955
#       177712
#       196160
#       218400
#       236790
#       254302
#       271467
# 
# Disc length: 3858 seconds
# 
# Revision: 6
# Submitted via: Grip 3.3.1
# 
DISCID=ed0f1010
DTITLE=The Human League / Greatest Hits
DYEAR=1995
DGENRE=misc
DID3=74
TTITLE0=Don't You Want Me (Original Version)
TTITLE1=Love Action (I Believe In Love)
TTITLE2=Mirror Man
TTITLE3=Tell Me When
TTITLE4=Stay With Me Tonight
TTITLE5=Open Your Heart
TTITLE6=(Keep Feeling) Fascination
TTITLE7=The Sound Of The Crowd
TTITLE8=Being Boiled
TTITLE9=The Lebanon
TTITLE10=Love Is All That Matters
TTITLE11=Louise
TTITLE12=Life On Your Own
TTITLE13=Together In Electric Dreams
TTITLE14=Human
TTITLE15=Don't You Want Me (Snap 7" Remix)
EXTD=
EXTT0=
EXTT1=
EXTT2=
EXTT3=
EXTT4=
EXTT5=
EXTT6=
EXTT7=
EXTT8=
EXTT9=
EXTT10=
EXTT11=
EXTT12=
EXTT13=
EXTT14=
EXTT15=
PLAYORDER=