Last change 2020.03.01 14:20:52 / Time 2021.12.01 16:32:06

Music Database

My complete CD collection digitalized using differnent Linux tools in connection with remote CDDB databases.
These web pages give overview of content according to CDDB info.

cddb/ec11cd11.txt

# xmcd CD database file generated by Grip 3.3.1
# 
# Track frame offsets:
#       182
#       19870
#       37627
#       63382
#       81525
#       100930
#       130007
#       148727
#       167415
#       189710
#       210202
#       232320
#       250917
#       268812
#       285350
#       304017
#       323790
# 
# Disc length: 4559 seconds
# 
# Revision: 104
# Submitted via: Grip 3.3.1
# 
DISCID=ec11cd11
DTITLE=Queen / Greatest Hits II
DYEAR=1991
DGENRE=misc
DID3=17
TTITLE0=A Kind of Magic
TTITLE1=Under Pressure
TTITLE2=Radio Ga Ga
TTITLE3=I Want It All
TTITLE4=I Want to Break Free
TTITLE5=Innuendo
TTITLE6=It's a Hard Life
TTITLE7=Breakthru
TTITLE8=Who Wants to Live Forever
TTITLE9=Headlong
TTITLE10=The Miracle
TTITLE11=I'm Going Slightly Mad
TTITLE12=The Invisible Man
TTITLE13=Hammer to Fall
TTITLE14=Friends Will Be Friends
TTITLE15=The Show Must Go On
TTITLE16=One Vision
EXTD=1991 ID3G:  17 YEAR: 1991
EXTT0=
EXTT1=
EXTT2=
EXTT3=
EXTT4=
EXTT5=
EXTT6=
EXTT7=
EXTT8=
EXTT9=
EXTT10=
EXTT11=
EXTT12=
EXTT13=
EXTT14=
EXTT15=
EXTT16=
PLAYORDER=