Last change 2020.03.01 14:20:52 / Time 2021.10.18 10:56:05

Music Database

My complete CD collection digitalized using differnent Linux tools in connection with remote CDDB databases.
These web pages give overview of content according to CDDB info.

cddb/ec116612.txt

# xmcd CD database file generated by Grip 3.3.1
# 
# Track frame offsets:
#       150
#       16967
#       36127
#       49260
#       62460
#       85915
#       109062
#       129892
#       150937
#       168725
#       182392
#       207295
#       225437
#       246432
#       261125
#       280572
#       298910
#       315560
# 
# Disc length: 4456 seconds
# 
# Revision: 2
# Submitted via: Grip 3.3.1
# 
DISCID=ec116612
DTITLE=TV2 / Greatest - De unge år - CD1
DYEAR=1992
DGENRE=misc
DID3=13
TTITLE0=Fantastiske Toyota
TTITLE1=Vi skaber en verden perfekt
TTITLE2=Sommeren er slut
TTITLE3=Kærlighed
TTITLE4=Bag duuggede ruder
TTITLE5=Popmusikerens vise (live)
TTITLE6=Lanternen
TTITLE7=Be bab a lu la
TTITLE8=Natradio
TTITLE9=Gare du nord
TTITLE10=Vil du danse med mig
TTITLE11=Ræven og rønnebærrene (live)
TTITLE12=Rigtige mænd
TTITLE13=Skanderborg station
TTITLE14=Eventyr for begyndere
TTITLE15=Hr og fru Danmark
TTITLE16=Evelyn
TTITLE17=Hele verden fra forstanden
EXTD=
EXTT0=
EXTT1=
EXTT2=
EXTT3=
EXTT4=
EXTT5=
EXTT6=
EXTT7=
EXTT8=
EXTT9=
EXTT10=
EXTT11=
EXTT12=
EXTT13=
EXTT14=
EXTT15=
EXTT16=
EXTT17=
PLAYORDER=