Last change 2020.03.01 14:20:52 / Time 2020.09.19 15:35:31

Music Database

My complete CD collection digitalized using differnent Linux tools in connection with remote CDDB databases.
These web pages give overview of content according to CDDB info.

cddb/ec10ca0f.txt

# xmcd CD database file generated by Grip 3.0.7
# 
# Track frame offsets:
#       150
#       22225
#       44537
#       63732
#       80295
#       96652
#       115210
#       134120
#       158082
#       184910
#       204332
#       220977
#       238972
#       266347
#       293670
# 
# Disc length: 4300 seconds
# 
# Revision: 64
# Submitted via: Grip 3.0.7
# 
DISCID=ec10ca0f
DTITLE=Michael Jackson / History (CD1)
DYEAR=2001
DGENRE=misc
DID3=13
TTITLE0=Billie Jean
TTITLE1=The Way You Make Me Feel
TTITLE2=Black Or White
TTITLE3=Rock With You
TTITLE4=She's Out Of My Life
TTITLE5=Bad
TTITLE6=I Just Can't Stop Loving You
TTITLE7=Man In The Mirror
TTITLE8=Thriller
TTITLE9=Beat It
TTITLE10=The Girl Is Mine
TTITLE11=Remember The Time
TTITLE12=Don't Stop 'Til You Get Enough
TTITLE13=Wanna Be Startin' Somethin'
TTITLE14=Heal The World
EXTD=15 YEAR: 2001
EXTT0=
EXTT1=
EXTT2=
EXTT3=
EXTT4=
EXTT5=
EXTT6=
EXTT7=
EXTT8=
EXTT9=
EXTT10=
EXTT11=
EXTT12=
EXTT13=
EXTT14=
PLAYORDER=