Last change 2020.03.01 14:20:52 / Time 2021.12.01 14:39:02

Music Database

My complete CD collection digitalized using differnent Linux tools in connection with remote CDDB databases.
These web pages give overview of content according to CDDB info.

cddb/ec0cd112.txt

# xmcd CD database file generated by Grip 3.3.1
# 
# Track frame offsets:
#       150
#       20662
#       31632
#       47885
#       63690
#       77927
#       92182
#       103722
#       113077
#       121645
#       136627
#       152170
#       160957
#       177217
#       188875
#       205705
#       219410
#       231102
# 
# Disc length: 3283 seconds
# 
# Revision: 4
# Submitted via: Grip 3.3.1
# 
DISCID=ec0cd112
DTITLE=De Black Fooss / Luck Wie Ich Un Du (CD2)
DYEAR=
DGENRE=misc
DID3=12
TTITLE0=Mer losse d'r Dom en Kölle
TTITLE1=Pänz Pänz Pänz
TTITLE2=En d'r Kayjass Nummer Null
TTITLE3=Behütet dich ein Mägdelein
TTITLE4=Dr. Pillemann
TTITLE5=Einmol em Johr
TTITLE6=Es war ein Knabe von 18 Jahren
TTITLE7=Halali bläst das Horn durch den Wald
TTITLE8=Warum soll ein Jäger keine Hörner tragen
TTITLE9=Wo Liebe sich bettet
TTITLE10=Mir drinken us einer Fläsch
TTITLE11=Und ewig singen die Wälder
TTITLE12=Graue Nebel
TTITLE13=Verspätung
TTITLE14=Loss d'r Kopp nit hänge
TTITLE15=Kumm zoröck noh Kölle
TTITLE16=Ich han dich jän
TTITLE17=Wenn de Sonn schön schingk
EXTD=ID3G: 12
EXTT0=
EXTT1=
EXTT2=
EXTT3=
EXTT4=
EXTT5=
EXTT6=
EXTT7=
EXTT8=
EXTT9=
EXTT10=
EXTT11=
EXTT12=
EXTT13=
EXTT14=
EXTT15=
EXTT16=
EXTT17=
PLAYORDER=