Last change 2020.03.01 14:20:52 / Time 2020.09.19 15:17:45

Music Database

My complete CD collection digitalized using differnent Linux tools in connection with remote CDDB databases.
These web pages give overview of content according to CDDB info.

cddb/eb113c11.txt

# xmcd CD database file generated by Grip 3.3.1
# 
# Track frame offsets:
#       150
#       17102
#       41997
#       57180
#       73660
#       91535
#       113212
#       133225
#       149692
#       165782
#       180940
#       198660
#       217575
#       233980
#       253107
#       282337
#       301565
# 
# Disc length: 4414 seconds
# 
# Revision: 7
# Submitted via: Grip 3.3.1
# 
DISCID=eb113c11
DTITLE=Various / Forever Young ... CD2
DYEAR=1995
DGENRE=rock
DID3=13
TTITLE0=Alphaville / Forever Young
TTITLE1=A Flock of Seagulls / Wishing
TTITLE2=Ryan Paris / Dolce Vita
TTITLE3=Righierra / Vamos A La Playa
TTITLE4=Level 42 / Running In The Family
TTITLE5=ABC / All Of My Heart
TTITLE6=Ultravox / Hymn
TTITLE7=Princess / Say I'm Your Number One
TTITLE8=Belouis Some / Imagination
TTITLE9=Mel & Kim / Respectable
TTITLE10=Human League / Open Your Heart
TTITLE11=Buggles / Video Killed The Radio Star
TTITLE12=Paul Hardcastle / Nineteen
TTITLE13=Freez / I.O.U.
TTITLE14=Spandau Ballet / True
TTITLE15=Laid Back / Sunshine Reggae
TTITLE16=Trio / Da Da Da
EXTD= YEAR: 1995
EXTT0=
EXTT1=
EXTT2=
EXTT3=
EXTT4=
EXTT5=
EXTT6=
EXTT7=
EXTT8=
EXTT9=
EXTT10=
EXTT11=
EXTT12=
EXTT13=
EXTT14=
EXTT15=
EXTT16=
PLAYORDER=