Last change 2020.03.01 14:20:52 / Time 2021.10.22 10:13:15

Music Database

My complete CD collection digitalized using differnent Linux tools in connection with remote CDDB databases.
These web pages give overview of content according to CDDB info.

cddb/eb0c8011.txt

# xmcd CD database file generated by Grip 3.3.1
# 
# Track frame offsets:
#       150
#       9150
#       21287
#       33250
#       46322
#       58700
#       70547
#       86185
#       98877
#       107890
#       122912
#       133317
#       146347
#       163685
#       177845
#       197885
#       218480
# 
# Disc length: 3202 seconds
# 
# Revision: 0
# Submitted via: Grip 3.3.1
# 
DISCID=eb0c8011
DTITLE=Various / Hit, Hærg & Hentehår
DYEAR=
DGENRE=misc
DID3=13
TTITLE0=Mike Penders Searchers / Sweets For My Sweet
TTITLE1=Mike Penders Searchers / What Have They Done To The Rain
TTITLE2=Johnny & The Heartbeats / Keep On Running
TTITLE3=The Rocking Ghosts / Pretty Woman
TTITLE4=Mike Penders Searchers / Love Potion No 9
TTITLE5=The Past / Glad All Over
TTITLE6=The Hitmakers / Stop The Music
TTITLE7=Hep Stars / Cadillac
TTITLE8=Hep Stars / No Response
TTITLE9=The Heartbeats / Such A Night
TTITLE10=Red Squares / Sherry
TTITLE11=Hep Stars / Boomerang
TTITLE12=Second Round / Hollies Medley
TTITLE13=Sir Henry / Beautiful Brown Eyes
TTITLE14=Peter Belli / Shout
TTITLE15=Peter Belli / Boom Boom
TTITLE16=Red Squares / People Get Ready
EXTD=
EXTT0=
EXTT1=
EXTT2=
EXTT3=
EXTT4=
EXTT5=
EXTT6=
EXTT7=
EXTT8=
EXTT9=
EXTT10=
EXTT11=
EXTT12=
EXTT13=
EXTT14=
EXTT15=
EXTT16=
PLAYORDER=