Last change 2020.03.01 14:20:52 / Time 2021.10.18 11:43:42

Music Database

My complete CD collection digitalized using differnent Linux tools in connection with remote CDDB databases.
These web pages give overview of content according to CDDB info.

cddb/ea0ee810.txt

# xmcd CD database file generated by Grip 3.3.1
# 
# Track frame offsets:
#       182
#       19657
#       43355
#       59432
#       79430
#       102765
#       124102
#       140502
#       155395
#       169125
#       189740
#       208295
#       227590
#       244902
#       259027
#       278762
# 
# Disc length: 3818 seconds
# 
# Revision: 3
# Submitted via: Grip 3.3.1
# 
DISCID=ea0ee810
DTITLE=Malurt / Live Længe Leve
DYEAR=1994
DGENRE=rock
DID3=17
TTITLE0=Baglæns Rum
TTITLE1=Den Eneste I Verden
TTITLE2=Sidste Station
TTITLE3=Himlens Bagdør
TTITLE4=Indrømmer Blankt
TTITLE5=Det Andet Land
TTITLE6=Spøgelser
TTITLE7=På Gaden Igen
TTITLE8=Hjerte Af Is
TTITLE9=De Vildeste Fugle
TTITLE10=Gorilla Med Guldøl
TTITLE11=Sommer På Vej
TTITLE12=Gak Gak I Gågaden
TTITLE13=Superlove
TTITLE14=Gi Dig Selv Fri
TTITLE15=Vi Ses Igen
EXTD=
EXTT0=
EXTT1=
EXTT2=
EXTT3=
EXTT4=
EXTT5=
EXTT6=
EXTT7=
EXTT8=
EXTT9=
EXTT10=
EXTT11=
EXTT12=
EXTT13=
EXTT14=
EXTT15=
PLAYORDER=