Last change 2020.03.01 14:20:52 / Time 2020.09.24 07:36:05

Music Database

My complete CD collection digitalized using differnent Linux tools in connection with remote CDDB databases.
These web pages give overview of content according to CDDB info.

cddb/ea0eba11.txt

# xmcd CD database file generated by Grip 3.3.1
# 
# Track frame offsets:
#       182
#       21167
#       34940
#       49067
#       62655
#       78447
#       93310
#       115280
#       142125
#       158295
#       172815
#       190932
#       206722
#       220650
#       235505
#       254090
#       268057
# 
# Disc length: 3772 seconds
# 
# Revision: 2
# Submitted via: Grip 3.3.1
# 
DISCID=ea0eba11
DTITLE=Various / Dance Explosion 2 - CD1
DYEAR=1993
DGENRE=misc
DID3=4
TTITLE0=Village People: Y.M.C.A.
TTITLE1=KC & The Sunshine Band: That's The Way I Like It
TTITLE2=Patric Hernandez: Born To Be Alive
TTITLE3=Carl Douglas: Kung Fu Fighting
TTITLE4=Melba Moore: This Is It
TTITLE5=Johnny Wakelin: In Zaire
TTITLE6=Kool And The Gang: Celebration
TTITLE7=Eddy Grant: Livin' On A Frontline
TTITLE8=Earth Wind And Fire: September
TTITLE9=Climax Blues Band: Couldn't Get It Right
TTITLE10=Brothers Johnson: Stomp
TTITLE11=Commodores: Brick House
TTITLE12=Hot Chocolate: Disco Queen
TTITLE13=People's Choice: Jam Jam Jam
TTITLE14=Anita Ward: Ring My Bell
TTITLE15=Gloria Gaynor: Reach Out I'll Be There
TTITLE16=Donna Summer: Last Dance
EXTD=YEAR: 1993
EXTT0=
EXTT1=
EXTT2=
EXTT3=
EXTT4=
EXTT5=
EXTT6=
EXTT7=
EXTT8=
EXTT9=
EXTT10=
EXTT11=
EXTT12=
EXTT13=
EXTT14=
EXTT15=
EXTT16=
PLAYORDER=