Last change 2020.03.01 14:20:52 / Time 2020.09.25 02:56:18

Music Database

My complete CD collection digitalized using differnent Linux tools in connection with remote CDDB databases.
These web pages give overview of content according to CDDB info.

cddb/e9112312.txt

# xmcd
#
# Track frame offsets:
#	150
#	17377
#	34345
#	46657
#	56392
#	72735
#	95192
#	115020
#	132877
#	159025
#	176265
#	196017
#	213340
#	227327
#	241387
#	259560
#	280462
#	302892
#
# Disc length: 4389
#
# Revision: 2
# Processed by: cddbd v1.5.2PL0 Copyright (c) Steve Scherf et al.
# Submitted via: dBpowerAMP V4.0
# Normalized: r1:DSETVAR1
#
DISCID=e9112312
DTITLE=Various / 80's dance hits
DYEAR=1997
DGENRE=Dance
TTITLE0=Sabrina / Boys
TTITLE1=Grandmaster Flash / The Message
TTITLE2=Jackie Wilson / Reet Petite
TTITLE3=Sam Cooke / Wonderful World
TTITLE4=Nina Simone / My Baby just cares for me
TTITLE5=The Tweets / The Birdie Song
TTITLE6=Jose Feliciano / Right here waiting
TTITLE7=Grandmaster Flash / White Lines
TTITLE8=The Sugarhill Gang / Rapper's Delight
TTITLE9=KC & The Sunshine Band / Please Don´t go
TTITLE10=Sandy Coast / The eyes of Jenny
TTITLE11=Billy Ocean / On the run
TTITLE12=Paul Young & The Q-Tips / I wish it would rain
TTITLE13=The Brotherhood of Man / We don´t talk anymore
TTITLE14=Latoya Jackson / Bad Girl
TTITLE15=Sister Sledge / Frankie
TTITLE16=Rose Royce / The Magic Touch
TTITLE17=Tavares / Bad Times
EXTD=
EXTT0=
EXTT1=
EXTT2=
EXTT3=
EXTT4=
EXTT5=
EXTT6=
EXTT7=
EXTT8=
EXTT9=
EXTT10=
EXTT11=
EXTT12=
EXTT13=
EXTT14=
EXTT15=
EXTT16=
EXTT17=
PLAYORDER=
.