Last change 2020.03.01 14:20:52 / Time 2021.10.22 09:46:37

Music Database

My complete CD collection digitalized using differnent Linux tools in connection with remote CDDB databases.
These web pages give overview of content according to CDDB info.

cddb/e80fad11.txt

# xmcd CD database file generated by Grip 3.3.1
# 
# Track frame offsets:
#       182
#       14720
#       29565
#       47147
#       61045
#       86635
#       103227
#       119595
#       135490
#       153725
#       173917
#       187515
#       205212
#       226057
#       242535
#       259617
#       279635
# 
# Disc length: 4015 seconds
# 
# Revision: 0
# Submitted via: Grip 3.3.1
# 
DISCID=e80fad11
DTITLE=Various / Dance Explosion 2 - CD2
DYEAR=
DGENRE=rock
DID3=17
TTITLE0=George McCrae / Rock Your Baby
TTITLE1=Rose Royce / Car Wash
TTITLE2=Hot Chocolate / Every 1's a Winner
TTITLE3=KC and the Sunshine Band / Shake Your Booty
TTITLE4=MFSB / TSOP
TTITLE5=Sylvester / Mighty Real
TTITLE6=Taste of Honey / Boogie Oogie Oogie
TTITLE7=Tavares / Heaven Must Be Missing an Angel
TTITLE8=Roxy Music / Love Is the Drug
TTITLE9=Motors / Airport
TTITLE10=Michael Zager Band / Let's All Chant
TTITLE11=Amii Stewart / Knock on Wood
TTITLE12=Earth Wind & Fire / Fantasy
TTITLE13=The Emotions / Best of My Love
TTITLE14=Three Degrees / Givin' up Givin' In
TTITLE15=Johnny Taylor / Disco Lady
TTITLE16=Donna Summer & Barbra Streisand / Enough Is Enough (No More Tears
TTITLE16=)
EXTD=
EXTT0=
EXTT1=
EXTT2=
EXTT3=
EXTT4=
EXTT5=
EXTT6=
EXTT7=
EXTT8=
EXTT9=
EXTT10=
EXTT11=
EXTT12=
EXTT13=
EXTT14=
EXTT15=
EXTT16=
PLAYORDER=