Last change 2020.03.01 14:20:52 / Time 2020.09.24 09:12:20

Music Database

My complete CD collection digitalized using differnent Linux tools in connection with remote CDDB databases.
These web pages give overview of content according to CDDB info.

cddb/e80eb211.txt

# xmcd CD database file generated by Grip 3.0.7
# 
# Track frame offsets:
#       150
#       16727
#       31440
#       44552
#       61840
#       81772
#       102760
#       120422
#       134970
#       153827
#       170357
#       188967
#       203847
#       220902
#       235080
#       248137
#       266037
# 
# Disc length: 3764 seconds
# 
# Revision: 1
# Submitted via: Grip 3.0.7
# 
DISCID=e80eb211
DTITLE=Ace Of Base / The Bridge
DYEAR=1995
DGENRE=misc
DID3=13
TTITLE0=Beautiful Life
TTITLE1=Never Gonna Say I'm Sorry
TTITLE2=Lucky Love
TTITLE3=Edge Of Heaven
TTITLE4=Strange Ways
TTITLE5=Ravine
TTITLE6=Perfect World
TTITLE7=Angel Eyes
TTITLE8=Whispers In Blindness
TTITLE9=My Deja Vu
TTITLE10=You And I
TTITLE11=Wave Wet Sand
TTITLE12=Que Sera
TTITLE13=Just 'N' Image
TTITLE14=Lucky Love (Acoustic Version)
TTITLE15=Experience Pearls
TTITLE16=Blooming 18
EXTD=0111282 MEG
EXTT0=
EXTT1=
EXTT2=
EXTT3=
EXTT4=
EXTT5=
EXTT6=
EXTT7=
EXTT8=
EXTT9=
EXTT10=
EXTT11=
EXTT12=
EXTT13=
EXTT14=
EXTT15=
EXTT16=
PLAYORDER=