Last change 2020.03.01 14:20:52 / Time 2021.12.07 03:47:44

Music Database

My complete CD collection digitalized using differnent Linux tools in connection with remote CDDB databases.
These web pages give overview of content according to CDDB info.

cddb/e6118412.txt

# xmcd CD database file generated by Grip 3.3.1
# 
# Track frame offsets:
#       183
#       17420
#       38255
#       55545
#       75753
#       96753
#       113113
#       131250
#       148685
#       167043
#       188305
#       206003
#       227213
#       241400
#       256663
#       277130
#       294725
#       313903
# 
# Disc length: 4486 seconds
# 
# Revision: 1
# Submitted via: Grip 3.3.1
# 
DISCID=e6118412
DTITLE=Various / Emotions * 18 Panflute lovesongs
DYEAR=
DGENRE=misc
DID3=12
TTITLE0=Without You
TTITLE1=Another Day In Paradise
TTITLE2=Anything For You
TTITLE3=Tears In Heaven
TTITLE4=I Have A Dream
TTITLE5=For Your Eyes Only
TTITLE6=La Solitudine
TTITLE7=Bright Eyes
TTITLE8=Anak
TTITLE9=Hey Jude
TTITLE10=Sailing
TTITLE11=Stay On These Roads
TTITLE12=Sound Of Silence
TTITLE13=One Day I'll Fly Away
TTITLE14=All At Once
TTITLE15=I Will Always Love You
TTITLE16=Eternal Flame
TTITLE17=Careless Whisper
EXTD=
EXTT0=
EXTT1=
EXTT2=
EXTT3=
EXTT4=
EXTT5=
EXTT6=
EXTT7=
EXTT8=
EXTT9=
EXTT10=
EXTT11=
EXTT12=
EXTT13=
EXTT14=
EXTT15=
EXTT16=
EXTT17=
PLAYORDER=