Last change 2020.03.01 14:20:52 / Time 2021.10.18 11:23:49

Music Database

My complete CD collection digitalized using differnent Linux tools in connection with remote CDDB databases.
These web pages give overview of content according to CDDB info.

cddb/e60f8911.txt

# xmcd CD database file generated by Grip 3.3.1
# 
# Track frame offsets:
#       150
#       10330
#       22297
#       26570
#       47725
#       64740
#       84435
#       101592
#       118095
#       134330
#       155915
#       168840
#       185377
#       205542
#       234427
#       255795
#       276637
# 
# Disc length: 3979 seconds
# 
# Revision: 2
# Submitted via: Grip 3.3.1
# 
DISCID=e60f8911
DTITLE=Vangelis / Reprise
DYEAR=1999
DGENRE=misc
DID3=10
TTITLE0=Bon Voyage
TTITLE1=Dreams of Surf
TTITLE2=Opening
TTITLE3=Conquest of Paradise
TTITLE4=Monastery of la Rabida
TTITLE5=Come to Me
TTITLE6=Light and Shadow
TTITLE7=Fields of Coral
TTITLE8=Movement V
TTITLE9=Movement VI
TTITLE10=West Across the Ocean Sea
TTITLE11=Theme from 'Bitter Moon'
TTITLE12=Rachel's Song
TTITLE13=Movement IV
TTITLE14=Psalmus Ode
TTITLE15=Dawn
TTITLE16=Prelude
EXTD= YEAR: 1999
EXTT0=
EXTT1=
EXTT2=
EXTT3=
EXTT4=
EXTT5=
EXTT6=
EXTT7=
EXTT8=
EXTT9=
EXTT10=
EXTT11=
EXTT12=
EXTT13=
EXTT14=
EXTT15=
EXTT16=
PLAYORDER=