Last change 2020.03.01 14:20:52 / Time 2020.09.19 15:51:07

Music Database

My complete CD collection digitalized using differnent Linux tools in connection with remote CDDB databases.
These web pages give overview of content according to CDDB info.

cddb/e60f4211.txt

# xmcd CD database file generated by Grip 3.3.1
# 
# Track frame offsets:
#       150
#       25235
#       42453
#       56195
#       76695
#       96503
#       114288
#       133973
#       153738
#       173418
#       189783
#       204250
#       220183
#       236270
#       253605
#       266015
#       278003
# 
# Disc length: 3908 seconds
# 
# Revision: 9
# Submitted via: Grip 3.3.1
# 
DISCID=e60f4211
DTITLE=Various / Forever Young ... CD1
DYEAR=1995
DGENRE=rock
DID3=13
TTITLE0=Duran Duran / Rio
TTITLE1=A-Ha / Take On Me
TTITLE2=Erasure / Oh L'amour
TTITLE3=Communards / Don't Leave Me This Way
TTITLE4=Scritti Politti / Word Girl
TTITLE5=Wang Chung / Dance Hall Days
TTITLE6=Icehouse / Hey Little Girl
TTITLE7=Paul Young / Come Back And Stay
TTITLE8=Talk Talk / Such A Shame
TTITLE9=Howard Jones / What Is Love
TTITLE10=Bananarama / Shy Boy
TTITLE11=Limahl / Neverending Story
TTITLE12=F.R. David / Words
TTITLE13=Nik Kershaw / The Riddle
TTITLE14=Men Without Hats / Safety Dance
TTITLE15=Devo / Whip It
TTITLE16=King / Love And Pride
EXTD= YEAR: 1995
EXTT0=
EXTT1=
EXTT2=
EXTT3=
EXTT4=
EXTT5=
EXTT6=
EXTT7=
EXTT8=
EXTT9=
EXTT10=
EXTT11=
EXTT12=
EXTT13=
EXTT14=
EXTT15=
EXTT16=
PLAYORDER=