Last change 2020.03.01 14:20:52 / Time 2021.10.22 09:25:12

Music Database

My complete CD collection digitalized using differnent Linux tools in connection with remote CDDB databases.
These web pages give overview of content according to CDDB info.

cddb/e60cf811.txt

# xmcd CD database file generated by Grip 3.2.0
# 
# Track frame offsets:
#       150
#       17745
#       33720
#       48635
#       63038
#       83390
#       98980
#       111780
#       123880
#       140933
#       153178
#       156990
#       170303
#       186863
#       201048
#       217250
#       237060
# 
# Disc length: 3322 seconds
# 
# Revision: 5
# Submitted via: Grip 3.2.0
# 
DISCID=e60cf811
DTITLE=Kim Larsen / Guld & Grønne Skove
DYEAR=1995
DGENRE=misc
DID3=12
TTITLE0=Jutlandia
TTITLE1=Rita
TTITLE2=Papirsklip
TTITLE3=Tarzan Mama Mia
TTITLE4=Familien Skal i Skoven
TTITLE5=De Smukke Unge Mennesker
TTITLE6=Mig Og Molly
TTITLE7=Den Allersidste Dans
TTITLE8=Susan Himmelblå
TTITLE9=Hvileløse Hjerte
TTITLE10=Sammen & Hver For Sig
TTITLE11=Fru Sauterne
TTITLE12=Haveje
TTITLE13=Bell'Star
TTITLE14=Syd For Køge
TTITLE15=Midt Om Natten
TTITLE16=Om Lidt
EXTD=
EXTT0=
EXTT1=
EXTT2=
EXTT3=
EXTT4=
EXTT5=
EXTT6=
EXTT7=
EXTT8=
EXTT9=
EXTT10=
EXTT11=
EXTT12=
EXTT13=
EXTT14=
EXTT15=
EXTT16=
PLAYORDER=