Last change 2020.03.01 14:20:52 / Time 2021.12.01 15:01:16

Music Database

My complete CD collection digitalized using differnent Linux tools in connection with remote CDDB databases.
These web pages give overview of content according to CDDB info.

cddb/e50ddf10.txt

# xmcd CD database file generated by Grip 3.3.1
# 
# Track frame offsets:
#       150
#       17292
#       34412
#       49310
#       65620
#       87260
#       106537
#       121222
#       136402
#       156877
#       172420
#       184875
#       199917
#       221787
#       237272
#       256130
# 
# Disc length: 3553 seconds
# 
# Revision: 2
# Submitted via: Grip 3.3.1
# 
DISCID=e50ddf10
DTITLE=De Black Fooss / Roxy
DYEAR=1996
DGENRE=misc
DID3=13
TTITLE0=Wenn et Leech usjing em Roxy
TTITLE1=Die kleine Saache
TTITLE2=Anita
TTITLE3=Kleine Hoffnung
TTITLE4=Do han sen en d'r Ärm jenomme
TTITLE5=Em Pötze Kätt
TTITLE6=Jede Well
TTITLE7=Kaufhof kaufe
TTITLE8=Am Rhing ze wonne
TTITLE9=Dich schickt der Himmel
TTITLE10=Kölsch, Alt und Pils (KAP)
TTITLE11=Mir sin die Champions
TTITLE12=Samba em Veedel
TTITLE13=United we stand
TTITLE14=Esu krank wie ich ben
TTITLE15=Kölle mi Kölle
EXTD= YEAR: 1996 ID3G: 80
EXTT0=
EXTT1=
EXTT2=
EXTT3=
EXTT4=
EXTT5=
EXTT6=
EXTT7=
EXTT8=
EXTT9=
EXTT10=
EXTT11=
EXTT12=
EXTT13=
EXTT14=
EXTT15=
PLAYORDER=