Last change 2020.03.01 14:20:52 / Time 2020.09.24 08:06:40

Music Database

My complete CD collection digitalized using differnent Linux tools in connection with remote CDDB databases.
These web pages give overview of content according to CDDB info.

cddb/e50dc310.txt

# xmcd CD database file generated by Grip 3.3.1
# 
# Track frame offsets:
#       150
#       10785
#       33190
#       47285
#       69385
#       81267
#       98607
#       115025
#       134955
#       156660
#       178437
#       191622
#       200305
#       215035
#       238985
#       248827
# 
# Disc length: 3525 seconds
# 
# Revision: 2
# Submitted via: Grip 3.3.1
# 
DISCID=e50dc310
DTITLE=Various Artists / The Blues Collection CD3
DYEAR=1995
DGENRE=blues
DID3=0
TTITLE0=John Lee Hooker / She's Mine
TTITLE1=Gary Moore / Bad News
TTITLE2=Eric Clapton & Jimmy Page / Draggin' My Tail
TTITLE3=Muddy Waters / What's The Matter With the Mill
TTITLE4=The All Stars and Jimmy Page / Steelin'
TTITLE5=Albert Lee / Crosstown Link
TTITLE6=The Paul Delay Band / All My Money Gone
TTITLE7=Earl Hooker / End Of The Blues
TTITLE8=Cary Bell & Buster Benton / Born With The Blues
TTITLE9=The Mighty House Rockers / Blue Light
TTITLE10=Muddy Waters / Blow Wind Blow
TTITLE11=John Lee Hooker / Hobo Blues
TTITLE12=Billy Arnold & Tony McPhee / Don't Stay Out All Night
TTITLE13=Troyce Key & JJ Malone / I Gotta New Car + Framed
TTITLE14=John Lee Hooker / I'm Leaving
TTITLE15=Sunnyland Slim / I Had It So Hard
EXTD=
EXTT0=
EXTT1=
EXTT2=
EXTT3=
EXTT4=
EXTT5=
EXTT6=
EXTT7=
EXTT8=
EXTT9=
EXTT10=
EXTT11=
EXTT12=
EXTT13=
EXTT14=
EXTT15=
PLAYORDER=