Last change 2020.03.01 14:20:52 / Time 2020.09.19 15:07:22

Music Database

My complete CD collection digitalized using differnent Linux tools in connection with remote CDDB databases.
These web pages give overview of content according to CDDB info.

cddb/e50c7711.txt

# xmcd CD database file generated by Grip 3.3.1
# 
# Track frame offsets:
#       150
#       13942
#       23457
#       33507
#       43237
#       60825
#       73057
#       86827
#       97807
#       112092
#       128680
#       136820
#       147802
#       167170
#       179345
#       196980
#       219785
# 
# Disc length: 3193 seconds
# 
# Revision: 4
# Submitted via: Grip 3.3.1
# 
DISCID=e50c7711
DTITLE=Various / Absolute Christmas - CD2
DYEAR=
DGENRE=misc
DID3=12
TTITLE0=Bing Crosby / White Christmas
TTITLE1=Elvis Presley / Blue Christmas
TTITLE2=Dean Martin / Rudolph The Red-Nosed Reindeer
TTITLE3=Bobby Helms / Jingle Bell Rock
TTITLE4=Cliff Richard / Mistletoe & Wine
TTITLE5=Carola Häggkvist / Nu Tändas Tusen Juleljus
TTITLE6=José  Feliciano / Feliz Navidad
TTITLE7=Troll / Jag Såg Mamma Kyssa Tomten
TTITLE8=Nat "King" Cole / The Christmas Song (Merry Christmas To You)
TTITLE9=Dolly Parton / Winter Wonderland - Sleigh Ride
TTITLE10=Jim Reeves / Jingle Bells
TTITLE11=The Weavers / We Wish You A Merry Christmas
TTITLE12=Harry Belafonte / Mary's Boy Child
TTITLE13=Siv Pettersson / Låt Mig Få Tända Ett Ljus
TTITLE14=Jörgen Edman & Kören Ad Libitum / O Helga Natt
TTITLE15=Mahalia Jackson / Silent Night, Holy Night
TTITLE16=ABBA / Happy New Year
EXTD=
EXTT0=
EXTT1=
EXTT2=
EXTT3=
EXTT4=
EXTT5=
EXTT6=
EXTT7=
EXTT8=
EXTT9=
EXTT10=
EXTT11=
EXTT12=
EXTT13=
EXTT14=
EXTT15=
EXTT16=
PLAYORDER=