Last change 2020.03.01 14:20:52 / Time 2021.10.18 10:44:21

Music Database

My complete CD collection digitalized using differnent Linux tools in connection with remote CDDB databases.
These web pages give overview of content according to CDDB info.

cddb/e40da310.txt

# xmcd CD database file generated by Grip 3.0.7
# 
# Track frame offsets:
#       182
#       24625
#       44100
#       57225
#       70712
#       85950
#       105925
#       119375
#       135420
#       155070
#       171687
#       186825
#       203150
#       216812
#       236350
#       248037
# 
# Disc length: 3493 seconds
# 
# Revision: 0
# Submitted via: Grip 3.0.7
# 
DISCID=e40da310
DTITLE=ARATINGA Steelband / Caribbean Sounds
DYEAR=
DGENRE=misc
DID3=12
TTITLE0=Teaser
TTITLE1=Island Medley
TTITLE2=Tempo
TTITLE3=Plaisir d'amour
TTITLE4=The Hammer
TTITLE5=Jamaica Farewell
TTITLE6=Beautiful Barbados
TTITLE7=Cuando Sali de Cuba
TTITLE8=Fernando
TTITLE9=Silence is golden
TTITLE10=Negrito
TTITLE11=De Seppel
TTITLE12=Quizas
TTITLE13=Reggae Medley
TTITLE14=Kiss me Honey
TTITLE15=?
EXTD=
EXTT0=
EXTT1=
EXTT2=
EXTT3=
EXTT4=
EXTT5=
EXTT6=
EXTT7=
EXTT8=
EXTT9=
EXTT10=
EXTT11=
EXTT12=
EXTT13=
EXTT14=
EXTT15=
PLAYORDER=