Last change 2020.03.01 14:20:52 / Time 2020.09.24 08:48:40

Music Database

My complete CD collection digitalized using differnent Linux tools in connection with remote CDDB databases.
These web pages give overview of content according to CDDB info.

cddb/e311a410.txt

# xmcd CD database file generated by Grip 3.0.7
# 
# Track frame offsets:
#       150
#       11232
#       35242
#       47355
#       57725
#       75517
#       104165
#       128695
#       138225
#       162545
#       192352
#       226272
#       255985
#       266565
#       293232
#       303295
# 
# Disc length: 4518 seconds
# 
# Revision: 5
# Submitted via: Grip 3.0.7
# 
DISCID=e311a410
DTITLE=Various Artists / The Blues Collection CD1
DYEAR=1995
DGENRE=blues
DID3=0
TTITLE0=Eric Clapton - Snake Drive
TTITLE1=Muddy Walters - Dust My Broom (Live)
TTITLE2=John Lee Hooker - I'm In The Mood
TTITLE3=King Biscuit Boy - Step Back Baby
TTITLE4=John Mayall & The Bluesbreakers - Telephone Blues
TTITLE5=Buddy Guy - First Time I Met The Blues (Live)
TTITLE6=Byther Smith - Hold That Train
TTITLE7=The All Stars And Jimmy Page - LA Breakdown
TTITLE8=Jimmy Johnson - Looking For My Baby
TTITLE9=Luther Allison - You Upset Me Baby (Live)
TTITLE10=Albert Collins - I've Got A mind To Travel (Live)
TTITLE11=Eddie Clearwater - Came Up The Hard Way
TTITLE12=Tony McPhee - You Don't Love Me
TTITLE13=Alexis Corner - Stormy Monday Blues
TTITLE14=John Lee Hooker - Dimples
TTITLE15=Muddy Walters - Howlin' Wolf (Live)
EXTD=
EXTT0=
EXTT1=
EXTT2=
EXTT3=
EXTT4=
EXTT5=
EXTT6=
EXTT7=
EXTT8=
EXTT9=
EXTT10=
EXTT11=
EXTT12=
EXTT13=
EXTT14=
EXTT15=
PLAYORDER=