Last change 2020.03.01 14:20:52 / Time 2021.10.22 10:17:39

Music Database

My complete CD collection digitalized using differnent Linux tools in connection with remote CDDB databases.
These web pages give overview of content according to CDDB info.

cddb/e30b8f0e.txt

# xmcd CD database file generated by Grip 3.0.4
# 
# Track frame offsets:
#       182
#       12325
#       28225
#       40495
#       55222
#       70907
#       88410
#       103210
#       116080
#       133042
#       148237
#       164092
#       182617
#       202337
# 
# Disc length: 2961 seconds
# 
# Revision: 3
# Submitted via: Grip 3.0.4
# 
DISCID=e30b8f0e
DTITLE=The Blues Band / Itchy Feet
DYEAR=1981
DGENRE=blues
DID3=0
TTITLE0=Talkin Woman Blues
TTITLE1=Who's Right, Who's Wrong
TTITLE2=Rock N Roll Radio
TTITLE3=Itchy Feet
TTITLE4=Ultimatum Time
TTITLE5=So Lonely
TTITLE6=Maggies Farm
TTITLE7=Come On
TTITLE8=Turn Around
TTITLE9=I Can T Be Satisfied
TTITLE10=Got To Love You Baby
TTITLE11=Nothin But The Blues
TTITLE12=Let Your Bucket Down
TTITLE13=Back Door Man
EXTD=
EXTT0=
EXTT1=
EXTT2=
EXTT3=
EXTT4=
EXTT5=
EXTT6=
EXTT7=
EXTT8=
EXTT9=
EXTT10=
EXTT11=
EXTT12=
EXTT13=
PLAYORDER=