Last change 2020.03.01 14:20:52 / Time 2020.09.25 03:40:54

Music Database

My complete CD collection digitalized using differnent Linux tools in connection with remote CDDB databases.
These web pages give overview of content according to CDDB info.

cddb/e2128711.txt

# xmcd CD database file
#
# Track frame offsets:
#	150
#	21020
#	42720
#	60685
#	83500
#	104507
#	125675
#	151630
#	172960
#	193502
#	218387
#	238717
#	259122
#	278072
#	295792
#	319525
#	338572
#
# Disc length: 4745 seconds
#
# Revision: 2
# Processed by: cddbd v1.5.2PL0 Copyright (c) Steve Scherf et al.
# Submitted via: CDex 1.51
#
DISCID=e2128711
DTITLE=Rod Stewart / The Very Best of
DYEAR=
DGENRE=Rock
TTITLE0=Sailing
TTITLE1=I Don't Want To Talk About It
TTITLE2=Have I Told You Lately
TTITLE3=Young Turks
TTITLE4=Downtown Train
TTITLE5=All For Love
TTITLE6=Maggie May
TTITLE7=Baby Jane
TTITLE8=Some Guys Have All The Luck
TTITLE9=Da Ya Think I'm Sexy?
TTITLE10=You're In My Heart (The Final Acclaim)
TTITLE11=The First Cut Is Deep
TTITLE12=Tonight I'm Yours
TTITLE13=Tonight's The Night (Gonna Be Alright)
TTITLE14=Hot Legs
TTITLE15=Rhythm Of The Night
TTITLE16=Don't Come Around Here
EXTD=
EXTT0=
EXTT1=
EXTT2=
EXTT3=
EXTT4=
EXTT5=
EXTT6=
EXTT7=
EXTT8=
EXTT9=
EXTT10=
EXTT11=
EXTT12=
EXTT13=
EXTT14=
EXTT15=
EXTT16=
PLAYORDER=