Last change 2020.03.01 14:20:52 / Time 2020.09.25 03:43:36

Music Database

My complete CD collection digitalized using differnent Linux tools in connection with remote CDDB databases.
These web pages give overview of content according to CDDB info.

cddb/e20e9311.txt

# xmcd
# 
# Track frame offsets:
#     150
#     14542
#     30818
#     48547
#     67421
#     76910
#     91518
#     110950
#     137424
#     151971
#     165911
#     182974
#     200205
#     219267
#     232236
#     251281
#     266255
# 
# Disc length: 3733
# 
# Revision: 2
# Processed by: cddbd v1.5.2PL0 Copyright (c) Steve Scherf et al.
# Submitted via: BonkEnc v1.0.6
# 
DISCID=e20e9311
DTITLE=Various Artists / Greatest Ever Driving Songs 2
DYEAR=2007
DGENRE=Pop
TTITLE0=Christie, Tony / Is This The Way To Amarillo
TTITLE1=Boo Radleys / Wake Up Boo
TTITLE2=Hanson / MMMBop
TTITLE3=Tears For Fears / Everybody Wants To Rule The World
TTITLE4=Tams / Be Young Be Foolish Be Happy
TTITLE5=Haircut 100 / Fantastic Day
TTITLE6=Deep Blue Something / Breakfast At Tiffany's
TTITLE7=Pulp / Common People
TTITLE8=Wonder Stuff / Size Of A Cow
TTITLE9=Dodgy / Staying Out For The Summer
TTITLE10=Loggins, Kenny / Footloose
TTITLE11=MacColl, Kirsty / New England
TTITLE12=Jackson, Joe / Steppin' Out
TTITLE13=Jam / Town Called Malice
TTITLE14=Adamski & Seal / Killer
TTITLE15=M / Pop Muzik
TTITLE16=Sparks / This Town Ain't Big Enough For The Both Of Us
EXTD=
EXTT0=
EXTT1=
EXTT2=
EXTT3=
EXTT4=
EXTT5=
EXTT6=
EXTT7=
EXTT8=
EXTT9=
EXTT10=
EXTT11=
EXTT12=
EXTT13=
EXTT14=
EXTT15=
EXTT16=
PLAYORDER=
.