Last change 2020.03.01 14:20:52 / Time 2021.12.07 02:23:16

Music Database

My complete CD collection digitalized using differnent Linux tools in connection with remote CDDB databases.
These web pages give overview of content according to CDDB info.

cddb/e1110912.txt

# xmcd CD database file generated by Grip 3.3.1
# 
# Track frame offsets:
#       183
#       18463
#       38855
#       55515
#       75753
#       98250
#       112813
#       131108
#       148273
#       166513
#       181890
#       198903
#       216435
#       242875
#       260470
#       277590
#       295610
#       309885
# 
# Disc length: 4363 seconds
# 
# Revision: 3
# Submitted via: Grip 3.3.1
# 
DISCID=e1110912
DTITLE=Hot Chocolate / The Very Best Of Hot Chocolate
DYEAR=1987
DGENRE=blues
DID3=0
TTITLE0=It Started With A Kiss
TTITLE1=So You Win Again
TTITLE2=I Gave You My Heart (Didn't I?)
TTITLE3=No Doubt About It
TTITLE4=Brother Louie
TTITLE5=Tears On The Telephone
TTITLE6=Chances
TTITLE7=You Could've Been A Lady
TTITLE8=Every 1's A Winner
TTITLE9=Girl Crazy
TTITLE10=You Sexy Thing
TTITLE11=I'll Put You Together Again
TTITLE12=Are You Getting Enough
TTITLE13=Emma
TTITLE14=what Kinda Boy You're Lookin' For (Girl)
TTITLE15=Heaven Is In The Back Seat Of My Cadillac
TTITLE16=Disco Queen
TTITLE17=Heartache No. 9
EXTD=
EXTT0=
EXTT1=
EXTT2=
EXTT3=
EXTT4=
EXTT5=
EXTT6=
EXTT7=
EXTT8=
EXTT9=
EXTT10=
EXTT11=
EXTT12=
EXTT13=
EXTT14=
EXTT15=
EXTT16=
EXTT17=
PLAYORDER=