Last change 2020.03.01 14:20:52 / Time 2021.12.01 16:06:26

Music Database

My complete CD collection digitalized using differnent Linux tools in connection with remote CDDB databases.
These web pages give overview of content according to CDDB info.

cddb/e110d910.txt

# xmcd CD database file generated by Grip 3.3.1
# 
# Track frame offsets:
#       150
#       16790
#       35032
#       53635
#       74627
#       95285
#       115732
#       138162
#       158767
#       179337
#       200387
#       222805
#       243975
#       265362
#       287082
#       306847
# 
# Disc length: 4315 seconds
# 
# Revision: 9
# Submitted via: Grip 3.3.1
# 
DISCID=e110d910
DTITLE=U2 / The Best Of 1990-2000
DYEAR=2002
DGENRE=data
DID3=12
TTITLE0=Even Better Than The Real Thing
TTITLE1=Mysterious Ways
TTITLE2=Beautiful Day
TTITLE3=Electrical Storm (William Orbit Mix)
TTITLE4=One
TTITLE5=Miss Sarajevo
TTITLE6=Stay (Faraway, So Close!)
TTITLE7=Stuck In A Moment You Can't Get Out Of
TTITLE8=Gone (New Mix)
TTITLE9=Until The End Of The World
TTITLE10=The Hands That Built America (Theme From 'Gangs In New York')
TTITLE11=Discothèque (New Mix)
TTITLE12=Hold Me, Thrill Me, Kiss Me, Kill Me
TTITLE13=Staring At The Sun (New Mix)
TTITLE14=Numb (New Mix)
TTITLE15=The First Time
EXTD= YEAR: 2002
EXTT0=
EXTT1=
EXTT2=
EXTT3=
EXTT4=
EXTT5=
EXTT6=
EXTT7=
EXTT8=
EXTT9=
EXTT10=
EXTT11=
EXTT12=
EXTT13=
EXTT14=
EXTT15=
PLAYORDER=