Last change 2020.03.01 14:20:52 / Time 2021.10.18 10:10:28

Music Database

My complete CD collection digitalized using differnent Linux tools in connection with remote CDDB databases.
These web pages give overview of content according to CDDB info.

cddb/df0e7912.txt

# xmcd
#
# Track frame offsets:
#	150
#	10635
#	24712
#	36845
#	48782
#	60940
#	78387
#	88710
#	110677
#	124987
#	143820
#	157742
#	175062
#	195910
#	209957
#	226515
#	239572
#	257365
# Disc length: 3707 seconds
# Revision: 4
# Processed by: cddbd v1.5.2PL0 Copyright (c) Steve Scherf et al.
#
# Submitted via: libkcddb 0.10
#
DISCID=df0e7912
DTITLE=Creedence Clearwater Revival / Forever - 36 Greatest Hits: Disc One
DYEAR=1995
DGENRE=Classic Rock
TTITLE0=Bad Moon Rising
TTITLE1=Proud Mary
TTITLE2=Up Around The Bend
TTITLE3=Have You Ever Seen The Rain?
TTITLE4=Hey Tonight
TTITLE5=I Heard It Trough The Grapewine
TTITLE6=My Baby Left Me
TTITLE7=Wrote A Song For Everyone
TTITLE8=Lodi
TTITLE9=The Midnight Special
TTITLE10=Run Through The Jungle
TTITLE11=It's Just A Thought
TTITLE12=Walk On The Water
TTITLE13=Night Time Is The Right Time
TTITLE14=(Wish I Could) Hideaway
TTITLE15=Cotton Fields
TTITLE16=Someday Never Comes
TTITLE17=Suzie Q
EXTD=
EXTT0=
EXTT1=
EXTT2=
EXTT3=
EXTT4=
EXTT5=
EXTT6=
EXTT7=
EXTT8=
EXTT9=
EXTT10=
EXTT11=
EXTT12=
EXTT13=
EXTT14=
EXTT15=
EXTT16=
EXTT17=
PLAYORDER=
.