Last change 2020.03.01 14:20:52 / Time 2020.09.19 16:00:34

Music Database

My complete CD collection digitalized using differnent Linux tools in connection with remote CDDB databases.
These web pages give overview of content according to CDDB info.

cddb/df0c4e0f.txt

# xmcd CD database file generated by Grip 3.3.1
# 
# Track frame offsets:
#       150
#       14127
#       28837
#       41500
#       58075
#       72910
#       89825
#       103582
#       120647
#       137520
#       155870
#       167077
#       183157
#       200895
#       219122
# 
# Disc length: 3152 seconds
# 
# Revision: 0
# Submitted via: Grip 3.3.1
# 
DISCID=df0c4e0f
DTITLE=Puhdys / Wie ein Engel
DYEAR=
DGENRE=rock
DID3=-1
TTITLE0=Leben ist so oder so (1)
TTITLE1=So weit die Füße tragen
TTITLE2=Wie ein Engel
TTITLE3=Jenny
TTITLE4=Ich leb' noch
TTITLE5=Morgengrauen
TTITLE6=Schwarz und weiß
TTITLE7=Der Sonne entgegen
TTITLE8=Alle Wege
TTITLE9=Nein
TTITLE10=So wie früher
TTITLE11=Wenn ein Mensch lebt
TTITLE12=Tränen und Diamanten
TTITLE13=Was bleibt
TTITLE14=Leben ist so oder so (2)
EXTD=
EXTT0=
EXTT1=
EXTT2=
EXTT3=
EXTT4=
EXTT5=
EXTT6=
EXTT7=
EXTT8=
EXTT9=
EXTT10=
EXTT11=
EXTT12=
EXTT13=
EXTT14=
PLAYORDER=